<?xml version="1.0" standalone="no"?>
<!DOCTYPE svg PUBLIC "-//W3C//DTD SVG 1.1//EN" "http://www.w3.org/Graphics/SVG/1.1/DTD/svg11.dtd">
<svg xmlns="http://www.w3.org/2000/svg">
<metadata>Copyright (C) 2021 by original authors @ fontello.com</metadata>
<defs>
<font id="jws-icon" horiz-adv-x="1000" >
<font-face font-family="jws-icon" font-weight="400" font-stretch="normal" units-per-em="1000" ascent="850" descent="-150" />
<missing-glyph horiz-adv-x="1000" />
<glyph glyph-name="001-right-arrows-couple" unicode="&#xe800;" d="M532 850h-95l468-500-468-500h95l468 500-468 500z m-437 0h-95l468-500-468-500h95l468 500-468 500z" horiz-adv-x="1000" />

<glyph glyph-name="008-share" unicode="&#xe801;" d="M813 214c-57 0-108-27-142-69l-309 158c4 15 7 31 7 47 0 18-4 35-9 51l308 158c34-44 86-73 146-73 100 0 182 81 182 182 0 100-82 182-182 182-101 0-183-82-183-182 0-17 3-32 7-47l-309-159c-33 43-85 70-143 70-100 0-182-81-182-182s82-182 182-182c60 0 112 29 146 73l308-158c-5-16-9-33-9-51 0-100 82-182 182-182 101 0 183 82 183 182 0 101-82 182-183 182z" horiz-adv-x="1000" />

<glyph glyph-name="009-shuffle" unicode="&#xe802;" d="M998 566c-1 3-2 5-4 7l-125 125c-8 8-21 8-29 0-9-8-9-21 0-29l89-90h-12c-163 0-275-45-364-145-8-9-7-22 1-29 4-4 9-6 14-6 6 0 12 3 16 7 54 61 141 132 333 132h12l-90-90c-8-8-8-21 0-29 5-4 10-6 15-6s11 2 15 6l125 125c2 2 3 4 4 6 3 5 3 11 0 16z m-521-274c-9 6-22 3-29-6l-6-10c0 0 0 0 0 0-83-130-172-238-421-238-12 0-21-10-21-21s9-21 21-21c270 0 370 122 457 258l6 9c6 10 3 23-7 29z m521-142c-1 2-2 5-4 6l-125 125c-8 9-21 9-30 0s-8-21 0-29l90-89h-12c-261 0-340 125-423 258-88 139-179 283-473 283-12 0-21-9-21-21s9-20 21-20c271 0 352-129 437-264 86-137 175-278 459-278h12l-90-90c-8-8-8-21 0-29 5-4 10-6 15-6s11 2 15 6l125 125c2 2 3 4 4 7 2 5 2 11 0 16z" horiz-adv-x="1000" />

<glyph glyph-name="010-random" unicode="&#xe803;" d="M813 516c10-9 26-9 36 0l144 147c10 9 10 25 0 35l-145 144c-9 10-25 10-35 0-9-9-9-25 0-35l103-102h-149c-70 0-136-33-178-89l-121-159-120 159c-42 56-108 89-178 89h-145c-14 0-25-11-25-25 0-14 11-25 25-25h145c54 0 105-25 138-69l129-170-129-171c-33-43-84-69-138-69h-145c-14 0-25-11-25-25 0-14 11-25 25-25h145c70 0 136 33 178 89l120 159 121-159c42-56 108-89 178-89h149l-103-102c-6-7-8-16-6-24 2-9 9-16 17-18 9-2 18 0 24 6l145 145c10 10 10 26 0 35l-144 147c-7 6-16 9-25 6-8-2-15-9-17-17-3-9 0-18 6-24l103-104h-149c-55 0-106 26-139 69l-129 171 129 170c33 44 84 69 139 69h149l-103-104c-9-9-9-25 0-35z m0 0" horiz-adv-x="1000" />

<glyph glyph-name="001-road-perspective" unicode="&#xe804;" d="M986 102l-229 574c-3 7-8 13-15 18-6 5-13 8-21 8h-186c5 0 9-2 13-6 3-3 6-7 6-12l8-105c0-6-1-10-4-13-4-3-8-5-12-5h-92c-4 0-8 2-12 5-3 3-4 7-4 13l8 105c1 5 3 9 6 12 4 4 8 6 13 6h-186c-8 0-15-3-21-8-7-5-12-11-15-18l-229-574c-9-22-14-44-14-63 0-27 8-41 25-41h387c-5 0-9 2-12 6-3 3-5 7-4 12l11 141c0 4 2 9 6 12 3 3 8 5 12 5h150c5 0 9-2 12-5 4-3 6-8 6-12l11-141c1-5-1-9-4-12-3-4-7-6-12-6h387c17 0 25 14 25 41 0 19-5 41-14 63z m-403 193c0-4-1-8-4-11-4-3-8-4-12-4h-134c-4 0-8 1-12 4-3 3-4 7-4 11v2l13 176c1 5 3 9 6 12 4 4 8 6 13 6h102c5 0 9-2 13-6 3-3 5-7 6-12l13-176v-2h0z" horiz-adv-x="1000" />

<glyph glyph-name="002-engine" unicode="&#xe805;" d="M987 368l-112 85c-11 8-24 9-36 3-11-5-18-17-18-30v-52h-33v53c0 19-15 34-34 34h-67v124c0 18-15 33-33 33h-104v36h28c18 0 33 15 33 34 0 18-15 33-33 33h-217c-18 0-33-15-33-33 0-19 15-34 33-34h28v-36h-129c-19 0-34-15-34-33v-65h-65c-19 0-34-15-34-34v-77h-60v95c0 19-15 34-33 34-19 0-34-15-34-34v-350c0-18 15-33 34-33 18 0 33 15 33 33v95h60v-78c0-19 15-34 34-34h84l118-146c7-7 16-12 26-12h365c19 0 34 15 34 34v44h33v-44c0-14 7-25 19-31 5-2 10-3 14-3 8 0 16 3 22 8l112 96c8 7 12 16 12 26v232c0 11-5 21-13 27z" horiz-adv-x="1000" />

<glyph glyph-name="003-car" unicode="&#xe806;" d="M978 498h-73c-6 0-11-2-15-6l-16-15c-26 61-64 122-115 184-28 34-68 53-112 53h-294c-43 0-84-19-112-53-53-64-90-123-116-184l-15 15c-4 4-9 6-15 6h-73c-12 0-22-10-22-21v-51c0-11 9-21 20-21l76-5c-12-33-21-83-21-153 0-60 13-100 34-126v-117c0-10 8-18 18-18h83c10 0 18 8 18 18v73h544v-73c0-10 8-18 18-18h83c10 0 18 8 18 18v117c22 26 34 66 34 126 0 70-9 120-21 153l76 5c11 0 20 10 20 21v51c0 11-10 21-22 21z m-675 112c12 16 31 24 50 24h294c19 0 38-8 50-24 36-43 64-85 86-127l-566 0c21 41 49 83 86 127z m-62-445c-41 0-75 14-75 47 0 33 12 59 54 59s96-26 96-59-33-47-75-47z m338 7h-158c-24 0-43 19-43 43 0 7 6 12 12 12h220c7 0 12-5 12-12 0-24-19-43-43-43z m180-7c-42 0-75 14-75 47 0 33 55 59 96 59 42 0 54-26 54-59s-34-47-75-47z" horiz-adv-x="1000" />

<glyph glyph-name="004-grid" unicode="&#xe807;" d="M0 580h271v270h-271z m59 211h153v-153h-153z m0 0m671 59v-270h270v270z m211-212h-153v153h153z m0 0m-576-58h270v270h-270z m58 211h154v-153h-154z m0 0m-423-576h271v270h-271z m59 212h153v-154h-153z m0 0m671-212h270v270h-270z m58 212h153v-154h-153z m0 0m-423-212h270v270h-270z m58 212h154v-154h-154z m0 0m-423-577h271v271h-271z m59 212h153v-153h-153z m0 0m671-212h270v271h-270z m58 212h153v-153h-153z m0 0m-423-212h270v271h-270z m58 212h154v-153h-154z m0 0" horiz-adv-x="1000" />

<glyph glyph-name="005-list" unicode="&#xe808;" d="M196 807h-174c-12 0-22-10-22-22v-174c0-12 10-22 22-22h174c12 0 21 10 21 22v174c0 12-9 22-21 22z m-22-174h-130v130h130v-130z m22-174h-174c-12 0-22-10-22-22v-174c0-12 10-22 22-22h174c12 0 21 10 21 22v174c0 12-9 22-21 22z m-22-174h-130v130h130v-130z m22-174h-174c-12 0-22-10-22-22v-174c0-12 10-22 22-22h174c12 0 21 10 21 22v174c0 12-9 22-21 22z m-22-174h-130v130h130v-130z m804 870h-652c-12 0-22-10-22-22v-174c0-12 10-22 22-22h652c12 0 22 10 22 22v174c0 12-10 22-22 22z m-21-174h-609v130h609v-130z m21-174h-652c-12 0-22-10-22-22v-174c0-12 10-22 22-22h652c12 0 22 10 22 22v174c0 12-10 22-22 22z m-21-174h-609v130h609v-130z m21-174h-652c-12 0-22-10-22-22v-174c0-12 10-22 22-22h652c12 0 22 10 22 22v174c0 12-10 22-22 22z m-21-174h-609v130h609v-130z" horiz-adv-x="1000" />

<glyph glyph-name="006-fuel-station" unicode="&#xe809;" d="M774 666h-124v-61h93v-87c0-64 46-118 106-132v-360c0-20-16-36-36-36-20 0-36 16-36 36v311c0 53-44 96-97 96h-30v-60h30c20 0 36-16 36-36v-311c0-53 44-97 97-97s97 44 97 97v504c0 75-61 136-136 136z m0 0m-609 25h259v-175h-259z m0 0m86-559c0-24 20-44 44-44 24 0 43 20 43 44 0 15-19 63-43 113-24-50-44-98-44-113z m0 0m243 718h-399c-52 0-95-43-95-95v-875c0-17 14-30 30-30h529c17 0 30 13 30 30v875c0 52-42 95-95 95z m-359-394c-17 0-31 13-31 30v235c0 17 14 30 31 30h320c16 0 30-13 30-30v-235c0-17-14-30-30-30z m264-324c0-58-47-105-104-105s-105 47-105 105c0 45 60 160 78 194 5 10 15 16 27 16s21-6 26-16c19-34 78-149 78-194z m0 0" horiz-adv-x="1000" />

<glyph glyph-name="007-fuel" unicode="&#xe80a;" d="M759 850l-44-51 171-150v-475c-1-24-21-43-46-42-23 1-41 19-42 42v319c0 57-46 103-102 103h-25v144c0 57-46 102-103 102h-420c-57 0-102-45-102-102v-845c0-25 20-45 45-45h534c25 0 46 20 46 45v632h25c19 0 34-14 34-34v-319c2-63 53-110 116-109 59 2 106 50 109 109v506l-196 170z m-203-443h-396v310h396v-310z" horiz-adv-x="1000" />

<glyph glyph-name="art" unicode="&#xe80b;" d="M506 479c-56 0-102-46-102-102 0-56 46-102 102-102 57 0 102 46 102 102 0 56-45 102-102 102z m0-156c-29 0-53 24-53 54 0 29 24 53 53 53h0c30 0 54-24 54-53 0-30-24-54-54-54z m407 389l-663 75c-25 4-52-3-71-20-20-16-33-38-36-63l-12-100h-37c-54 0-94-47-94-101v-496c-1-52 39-94 90-95 1 0 2 0 4 0h666c54 0 102 41 102 95v19c17 3 33 10 46 19 20 17 33 40 36 66l55 493c6 54-32 102-86 108z m-99-705c0-27-27-47-54-47h-666c-25 0-45 19-45 43 0 1 0 2 0 4v89l188 139c22 17 54 16 75-4l133-116c20-17 45-27 71-27 21 0 41 5 58 16l240 138v-235z m0 292l-265-154c-23-13-52-11-72 6l-133 118c-39 33-94 35-135 5l-160-117v346c0 27 18 52 45 52h666c29-1 52-23 54-52v-204z m137 312c0-1 0-1 0-1l-57-493c0-13-6-25-16-33-5-5-16-7-16-9v428c-2 56-46 100-102 101h-580l11 95c2 12 9 23 18 31 11 8 23 11 36 10l662-76c27-3 47-27 44-53z" horiz-adv-x="1000" />

<glyph glyph-name="arrow_carrot-right_alt2" unicode="&#xe80c;" d="M678 341l-203 203c-12 12-32 12-44 0-12-13-12-32 0-45l181-180-181-181c-12-12-12-32 0-44 12-12 32-12 44 0l203 203c6 6 9 14 9 22 0 8-3 16-9 22z m-144 442c-258 0-467-209-467-466s209-467 467-467 466 209 466 467-209 466-466 466z m0-871c-223 0-404 182-404 405s181 404 404 404 404-182 404-404-182-405-404-405z" horiz-adv-x="1000" />

<glyph glyph-name="icon_clock_alt" unicode="&#xe80d;" d="M533 783c-119 0-239-45-330-136-182-183-182-478 0-660 92-91 211-137 330-137s239 46 330 137c183 182 183 477 0 660-91 91-210 136-330 136z m286-752c-76-76-178-119-286-119-108 0-209 43-285 119-77 76-119 178-119 286s42 209 119 286c76 76 177 118 285 118 108 0 210-42 286-118s119-178 119-286-43-210-119-286z m-100 319l-156 0 0 219c0 17-14 31-32 31s-31-14-31-31l0-250c0 0 0 0 0 0l0 0c0-17 14-31 31-31l188 0c17 0 31 14 31 31 0 17-14 31-31 31z" horiz-adv-x="1025" />

<glyph glyph-name="icon_check" unicode="&#xe80e;" d="M431 50c1-1 2-2 3-3 2-1 4-1 6-2 3-1 5-2 7-3 3-1 5-1 8-1 3-1 7-1 10 0 2 0 3 0 4 1 5 1 9 3 13 5 0 0 1 1 2 1 2 2 5 3 7 6 2 1 2 4 4 6 0 0 0 0 0 0l372 597c14 20 8 47-12 60s-48 8-61-12l-344-552-190 185c-18 17-46 16-62-2-16-18-15-46 2-62l229-223c1 0 1 0 2-1z" horiz-adv-x="1000" />

<glyph glyph-name="icon_mail" unicode="&#xe80f;" d="M938 600l-875 0c-35 0-63-28-63-62l0-105 500-200 500 200 0 105c0 34-28 62-62 62z m-938-269l0-419c0-34 28-62 63-62l875 0c34 0 62 28 62 62l0 419-500-200-500 200z" horiz-adv-x="1000" />

<glyph glyph-name="icon_phone" unicode="&#xe810;" d="M413 598c-12 137-155 205-161 207-6 3-12 4-18 3-166-28-191-124-192-128-1-5-1-11 1-17 197-612 607-725 742-762 10-3 19-6 25-8 3-1 7-1 10-1 4 0 9 1 13 3 4 1 101 47 125 197 1 6 0 13-3 19-2 4-53 101-194 135-10 3-20 0-28-6-44-38-106-79-132-83-178 87-278 254-282 286-2 18 39 80 86 131 6 7 9 15 8 24z" horiz-adv-x="1000" />

<glyph glyph-name="icon_pin" unicode="&#xe811;" d="M477-133c6-6 11-10 15-12 1 0 1 0 1 0 3-2 6-3 10-3 3 0 6 1 9 3 0 0 1 0 1 0 4 2 10 6 15 12 0 0 290 316 319 590 2 14 3 28 3 43 0 193-156 350-350 350s-350-157-350-350c0-15 1-30 3-44 30-274 324-589 324-589z m23 858c124 0 225-101 225-225 0-125-101-226-225-226s-225 101-225 226c0 124 101 225 225 225z" horiz-adv-x="1000" />

<glyph glyph-name="arrow_right_alt" unicode="&#xe812;" d="M531 788c-259 0-468-210-468-469s209-469 468-469 469 210 469 469-210 469-469 469z m282-469c0 0 0 0 0 0 0-4-1-8-3-12-1-4-4-7-7-10l-187-188c-12-12-32-12-44 0-12 12-12 32 0 44l134 135-487 0c-17 0-31 14-31 31 0 17 14 31 31 31l487 0-134 134c-13 12-13 32 0 44 12 13 32 13 44 0l187-187c3-3 6-6 7-10 2-4 3-8 3-12l0 0z" horiz-adv-x="1000" />

<glyph glyph-name="arrow_left" unicode="&#xe813;" d="M125 381c0-4 1-8 2-12 2-3 4-7 7-9 0-1 0-1 0-1l188-187c12-13 32-13 44 0 12 12 12 32 0 44l-134 134 612 0c17 0 31 14 31 31 0 18-14 32-31 32l-612 0 134 134c12 12 12 32 0 44-12 12-32 12-44 0l-188-188c0 0 0 0 0 0-3-3-5-6-7-10-1-4-2-8-2-12l0 0c0 0 0 0 0 0z" horiz-adv-x="1000" />

<glyph glyph-name="arrow_carrot-right" unicode="&#xe814;" d="M431 94c12-12 32-12 44 0l203 203c6 6 9 14 9 22 0 8-3 16-9 22l-203 203c-12 12-32 12-44 0-12-13-12-32 0-45l181-180-181-181c-12-12-12-32 0-44z" horiz-adv-x="1000" />

<glyph glyph-name="icon_check_alt" unicode="&#xe815;" d="M503 850c-276 0-500-224-500-500s224-500 500-500 500 224 500 500-224 500-500 500z m231-362l-239-366c0 0 0 0 0 0-2-2-2-4-4-6-2-2-5-3-7-5-1-1-2-1-2-1-4-3-8-5-13-6-1 0-2 0-4-1-3 0-7 0-10 0-3 0-5 1-8 1-2 1-4 2-7 3-2 1-4 1-6 3-1 1-2 2-3 3-1 0-1 1-2 1l-139 129c-18 16-19 44-3 62s44 19 62 2l101-93 211 322c13 20 40 26 61 13 20-13 26-40 12-61z" horiz-adv-x="1000" />

<glyph glyph-name="calendar2" unicode="&#xe816;" d="M891 725h-78v31a63 63 0 0 1-125 0v-31h-125v31a63 63 0 0 1-125 0v-31h-125v31a63 63 0 0 1-125 0v-31h-79a78 78 0 0 1-78-78v-625a78 78 0 0 1 78-78h438a16 16 0 0 1 0 31h-438a47 47 0 0 0-46 47v484h875v-265a16 16 0 0 1 31 0v406a78 78 0 0 1-78 78z m-172 31a31 31 0 0 0 62 0v-93a31 31 0 0 0-62 0z m-250 0a31 31 0 0 0 62 0v-93a31 31 0 0 0-62 0z m-250 0a31 31 0 0 0 62 0v-93a31 31 0 0 0-62 0z m719-218h-875v109a47 47 0 0 0 46 47h79v-31a63 63 0 0 1 125 0v31h125v-31a63 63 0 0 1 125 0v31h125v-31a63 63 0 0 1 125 0v31h78a47 47 0 0 0 47-47z m-469-141a31 31 0 0 1-31 31h-63a31 31 0 0 1-31-31v-47a31 31 0 0 1 31-31h63a31 31 0 0 1 31 31z m-94-47v47h63v-47z m-94 47a31 31 0 0 1-31 31h-62a31 31 0 0 1-32-31v-47a31 31 0 0 1 32-31h62a31 31 0 0 1 31 31z m-93-47v47h62v-47z m625-31a31 31 0 0 1 31 31v47a31 31 0 0 1-31 31h-63a31 31 0 0 1-31-31v-47a31 31 0 0 1 31-31z m-63 78h63v-47h-63z m-281-141a31 31 0 0 1-31 32h-63a31 31 0 0 1-31-32v-47a31 31 0 0 1 31-31h63a31 31 0 0 1 31 31z m-94-47v47h63v-47z m-94 47a31 31 0 0 1-31 32h-62a31 31 0 0 1-32-32v-47a31 31 0 0 1 32-31h62a31 31 0 0 1 31 31z m-93-47v47h62v-47z m250-62h-63a31 31 0 0 1-31-31v-47a31 31 0 0 1 31-31h63a31 31 0 0 1 31 31v47a31 31 0 0 1-31 31z m-63-78v47h63v-47z m188 250h62a31 31 0 0 1 31 31v47a31 31 0 0 1-31 31h-62a31 31 0 0 1-32-31v-47a31 31 0 0 1 32-31z m0 78h62v-47h-62z m-32-188a31 31 0 0 1 32-31 16 16 0 0 1 0 31v47h62a16 16 0 0 1 0 32h-62a31 31 0 0 1-32-32z m-281-62h-62a31 31 0 0 1-32-31v-47a31 31 0 0 1 32-31h62a31 31 0 0 1 31 31v47a31 31 0 0 1-31 31z m-62-78v47h62v-47z m578 219a203 203 0 1 1 203-204 203 203 0 0 1-203 204z m0-376a172 172 0 1 0 172 172 172 172 0 0 0-172-172z m90 238l-122-122-55 56a16 16 0 0 1-22-22l66-67a16 16 0 0 1 22 0l133 133a16 16 0 0 1-22 22z" horiz-adv-x="1000" />

<glyph glyph-name="steering-wheel" unicode="&#xe817;" d="M500 850c-275 0-500-225-500-500 0-275 225-500 500-500 275 0 500 225 500 500 0 275-225 500-500 500z m0-941c-243 0-441 198-441 441s198 441 441 441 441-198 441-441-198-441-441-441z m0 824c-185 0-346-137-377-319l-6-35h239l7 20c21 58 76 98 137 98s117-40 137-98l7-20h239l-6 35c-31 182-191 319-377 319z m185-295c-34 71-106 117-185 117s-151-46-184-117h-128c40 137 168 236 312 236s273-99 312-236z m-322-137l-7 20h-239l6-34c26-156 149-282 303-313l41-8-36 254c-5 5-48 24-68 81z m-175-39h128c14-30 35-56 61-75l20-144c-101 34-179 117-209 219z m449 39c-20-56-63-77-68-81l-36-254 41 8c154 31 277 156 303 313l6 34h-239z m175-39c-29-102-108-185-209-219l21 144c25 19 46 45 61 75z m-224 88c0 49-39 88-88 88s-88-39-88-88 40-88 88-88 88 40 88 88z m-88-29c-16 0-29 13-29 29s13 29 29 29 29-13 29-29-13-29-29-29z" horiz-adv-x="1000" />

<glyph glyph-name="calendar-full" unicode="&#xe818;" d="M925 750h-125v25c0 14-11 25-25 25s-25-11-25-25v-25h-500v25c0 14-11 25-25 25s-25-11-25-25v-25h-125c-41 0-75-34-75-75v-700c0-41 34-75 75-75h850c41 0 75 34 75 75v700c0 41-34 75-75 75z m-850-50h125v-75c0-14 11-25 25-25s25 11 25 25v75h500v-75c0-14 11-25 25-25s25 11 25 25v75h125c14 0 25-11 25-25v-125h-900v125c0 14 11 25 25 25z m850-750h-850c-14 0-25 11-25 25v525h900v-525c0-14-11-25-25-25z m-550 400h-50c-14 0-25 11-25 25s11 25 25 25h50c14 0 25-11 25-25s-11-25-25-25z m150 0h-50c-14 0-25 11-25 25s11 25 25 25h50c14 0 25-11 25-25s-11-25-25-25z m150 0h-50c-14 0-25 11-25 25s11 25 25 25h50c14 0 25-11 25-25s-11-25-25-25z m150 0h-50c-14 0-25 11-25 25s11 25 25 25h50c14 0 25-11 25-25s-11-25-25-25z m-600-100h-50c-14 0-25 11-25 25s11 25 25 25h50c14 0 25-11 25-25s-11-25-25-25z m150 0h-50c-14 0-25 11-25 25s11 25 25 25h50c14 0 25-11 25-25s-11-25-25-25z m150 0h-50c-14 0-25 11-25 25s11 25 25 25h50c14 0 25-11 25-25s-11-25-25-25z m150 0h-50c-14 0-25 11-25 25s11 25 25 25h50c14 0 25-11 25-25s-11-25-25-25z m150 0h-50c-14 0-25 11-25 25s11 25 25 25h50c14 0 25-11 25-25s-11-25-25-25z m-600-100h-50c-14 0-25 11-25 25s11 25 25 25h50c14 0 25-11 25-25s-11-25-25-25z m150 0h-50c-14 0-25 11-25 25s11 25 25 25h50c14 0 25-11 25-25s-11-25-25-25z m150 0h-50c-14 0-25 11-25 25s11 25 25 25h50c14 0 25-11 25-25s-11-25-25-25z m150 0h-50c-14 0-25 11-25 25s11 25 25 25h50c14 0 25-11 25-25s-11-25-25-25z m150 0h-50c-14 0-25 11-25 25s11 25 25 25h50c14 0 25-11 25-25s-11-25-25-25z m-600-100h-50c-14 0-25 11-25 25s11 25 25 25h50c14 0 25-11 25-25s-11-25-25-25z m150 0h-50c-14 0-25 11-25 25s11 25 25 25h50c14 0 25-11 25-25s-11-25-25-25z m150 0h-50c-14 0-25 11-25 25s11 25 25 25h50c14 0 25-11 25-25s-11-25-25-25z m150 0h-50c-14 0-25 11-25 25s11 25 25 25h50c14 0 25-11 25-25s-11-25-25-25z m150 0h-50c-14 0-25 11-25 25s11 25 25 25h50c14 0 25-11 25-25s-11-25-25-25z" horiz-adv-x="1000" />

<glyph glyph-name="briefcase" unicode="&#xe819;" d="M925 600h-225v75c0 41-34 75-75 75h-250c-41 0-75-34-75-75v-75h-225c-41 0-75-34-75-75v-550c0-41 34-75 75-75h850c41 0 75 34 75 75v550c0 41-34 75-75 75z m-575 75c0 14 11 25 25 25h250c14 0 25-11 25-25v-75h-300v75z m-275-125h850c14 0 25-11 25-25v-375h-100v25c0 14-11 25-25 25h-100c-14 0-25-11-25-25v-25h-400v25c0 14-11 25-25 25h-100c-14 0-25-11-25-25v-25h-100v375c0 14 11 25 25 25z m725-400v-50h-50v50h50z m-550 0v-50h-50v50h50z m675-200h-850c-14 0-25 11-25 25v125h100v-25c0-14 11-25 25-25h100c14 0 25 11 25 25v25h400v-25c0-14 11-25 25-25h100c14 0 25 11 25 25v25h100v-125c0-14-11-25-25-25z" horiz-adv-x="1000" />

<glyph glyph-name="thumbs-up" unicode="&#xe81a;" d="M946 290c22 25 35 67 35 108 0 26-6 49-17 67-14 23-37 35-64 35h-131c71 130 89 227 54 290-25 44-71 60-103 60-12 0-23-9-24-22-9-66-60-144-139-215-75-69-168-123-264-156-12 25-38 43-68 43h-150c-41 0-75-34-75-75v-450c0-41 34-75 75-75h150c32 0 59 20 70 48 98-13 135-33 171-52 44-23 87-46 225-46 36 0 70 9 95 26 25 17 41 40 47 68 20 8 37 26 51 54 13 27 22 62 22 88 0 5-1 10-1 14 12 9 24 24 33 43 14 27 22 61 22 91 0 21-4 39-12 52-1 1-1 3-2 4z m-721-340h-150c-14 0-25 11-25 25v450c0 14 11 25 25 25h150c14 0 25-11 25-25v-450c0 0 0 0 0 0 0-14-11-25-25-25z m692 386c-8-15-15-20-19-20-13 0-25-12-25-25s12-25 25-25c3 0 4 0 6-4 4-6 6-16 6-28 0-22-7-49-17-69-10-20-20-27-24-27-14 0-25-12-25-25 0-9 4-17 11-22 2-15-5-58-25-85-7-11-15-17-21-17-13 0-25-11-25-25 0-44-48-64-93-64-126 0-161 19-202 41-38 20-81 43-189 56v410c105 34 208 94 291 168 79 72 132 150 149 222 14-5 29-14 39-31 17-30 29-105-75-278-4-8-4-17 0-25s13-13 22-13h174c10 0 16-3 22-12 5-9 9-24 9-40 0-22-5-45-14-62z" horiz-adv-x="1000" />

<glyph glyph-name="gift" unicode="&#xe81b;" d="M925 600h-150c16 21 25 47 25 75 0 69-56 125-125 125-69 0-128-55-156-88-18-20-32-41-44-62-11 21-26 42-44 62-28 33-86 88-156 88-69 0-125-56-125-125 0-28 9-54 25-75h-150c-14 0-25-11-25-25v-150c0-14 11-25 25-25h25v-475c0-41 34-75 75-75h700c41 0 75 34 75 75v475h25c14 0 25 11 25 25v150c0 14-11 25-25 25z m-369 79c40 45 83 71 119 71 41 0 75-34 75-75s-34-75-75-75h-169c9 22 26 52 50 79z m-6-779h-150v650h150v-650z m-350 775c0 41 34 75 75 75 36 0 80-26 119-71 24-27 41-57 50-79h-169c-41 0-75 34-75 75z m-150-125h300v-100h-300v100z m50-625v475h250v-500h-225c-14 0-25 11-25 25z m750 0c0-14-11-25-25-25h-225v500h250v-475z m50 525h-300v100h300v-100z" horiz-adv-x="1000" />

<glyph glyph-name="clock" unicode="&#xe81c;" d="M816-6c86 90 134 207 134 331 0 119-43 230-122 318l35 34 32-32c5-5 11-7 18-7s12 2 17 7c10 10 10 26 0 35l-100 100c-10 10-25 10-35 0s-10-25 0-35l32-32-34-35c-88 79-199 122-318 122s-230-43-318-122l-34 35 32 32c10 10 10 26 0 35s-25 10-35 0l-100-100c-10-9-10-25 0-35 5-5 11-7 18-7s12 2 17 7l33 32 34-34c-79-88-122-199-122-318 0-124 48-241 134-331l-102-101c-9-10-9-26 0-36 5-5 12-7 18-7s13 2 18 7l103 103c85-71 192-110 304-110s219 39 304 110l103-103c5-5 12-7 18-7s13 2 18 7c9 10 9 26 0 36l-102 101z m-766 331c0 234 191 425 425 425s425-191 425-425c0-234-191-425-425-425s-425 191-425 425z m706 163c-6 11-22 16-34 9l-246-142-191 134c-12 8-27 5-35-6s-5-27 6-35l205-143c0-1 0-1 0-1 0 0 1 0 1 0 0 0 0-1 1-1 0 0 0 0 1 0 0 0 0 0 0-1 1 0 1 0 2 0 0 0 0 0 1-1 0 0 0 0 0 0 1 0 1 0 1 0 1 0 1 0 1 0 0 0 1 0 1-1 0 0 0 0 1 0 0 0 0 0 1 0 0 0 0 0 0 0 1 0 1 0 1 0 1 0 1 0 2 0 0 0 0 0 0 0 0 0 0 0 0 0s0 0 0 0c1 0 2 0 3 0 0 0 0 0 0 0 1 0 2 0 3 1 0 0 0 0 0 0 1 0 2 0 2 0 1 0 1 1 1 1 1 0 1 0 2 1 0 0 1 0 1 0 0 0 0 0 1 0l259 150c12 7 16 22 9 34z" horiz-adv-x="1000" />

<glyph glyph-name="icon_check_alt-1" unicode="&#xe81d;" d="M503 850c-276 0-500-224-500-500s224-500 500-500 500 224 500 500-224 500-500 500z m231-362l-239-366c0 0 0 0 0 0-2-2-2-4-4-6-2-2-5-3-7-5-1-1-2-1-2-1-4-3-8-5-13-6-1 0-2 0-4-1-3 0-7 0-10 0-3 0-5 1-8 1-2 1-4 2-7 3-2 1-4 1-6 3-1 1-2 2-3 3-1 0-1 1-2 1l-139 129c-18 16-19 44-3 62s44 19 62 2l101-93 211 322c13 20 40 26 61 13 20-13 26-40 12-61z" horiz-adv-x="1000" />

<glyph glyph-name="icon_menu" unicode="&#xe81e;" d="M219 350l562 0c18 0 32 14 32 31 0 18-14 32-32 32l-562 0c-17 0-31-14-31-32 0-17 14-31 31-31z m0 188l562 0c18 0 32 14 32 31 0 17-14 31-32 31l-562 0c-17 0-31-14-31-31 0-17 14-31 31-31z m0-375l562 0c18 0 32 14 32 31 0 17-14 31-32 31l-562 0c-17 0-31-14-31-31 0-17 14-31 31-31z" horiz-adv-x="1000" />

<glyph glyph-name="icon_menu-circle_alt2" unicode="&#xe81f;" d="M531 788c-259 0-468-210-468-469s209-469 468-469 469 210 469 469-210 469-469 469z m0-876c-224 0-406 183-406 407s182 406 406 406 407-182 407-406-183-407-407-407z m250 438l-500 0c-17 0-31-14-31-31 0-17 14-31 31-31l500 0c18 0 32 14 32 31 0 17-14 31-32 31z m0 188l-500 0c-17 0-31-14-31-32 0-17 14-31 31-31l500 0c18 0 32 14 32 31 0 18-14 32-32 32z m0-375l-500 0c-17 0-31-14-31-32 0-17 14-31 31-31l500 0c18 0 32 14 32 31 0 18-14 32-32 32z" horiz-adv-x="1000" />

<glyph glyph-name="menu_p3" unicode="&#xe820;" d="M979 663h-958c-12 0-21-10-21-21s9-21 21-21h958c12 0 21 9 21 21s-9 21-21 21z m0-292h-958c-12 0-21-9-21-21s9-21 21-21h958c12 0 21 10 21 21s-9 21-21 21z m0-292h-958c-12 0-21-9-21-21 0-11 9-20 21-20h958c12 0 21 9 21 20 0 12-9 21-21 21z" horiz-adv-x="1000" />

<glyph glyph-name="icon_globe-2" unicode="&#xe821;" d="M531 788c-259 0-468-210-468-469s209-469 468-469 469 210 469 469-210 469-469 469z m342-250l-93 0c-18 57-43 106-73 147 68-33 126-84 166-147z m-310 0l0 182c59-18 116-83 152-182l-152 0z m170-63c9-38 14-80 16-125l-186 0 0 125 170 0z m-233 245l0-182-152 0c35 99 93 164 152 182z m0-245l0-125-187 0c2 45 8 87 17 125l170 0z m-249-125l-124 0c3 44 13 86 29 125l110 0c-8-40-13-81-15-125z m0-62c2-44 7-86 15-125l-110 0c-16 38-26 81-29 125l124 0z m62 0l187 0 0-125-170 0c-9 38-15 80-17 125z m187-188l0-182c-59 17-117 83-152 182l152 0z m63-182l0 182 152 0c-36-99-93-165-152-182z m0 245l0 125 186 0c-2-45-7-87-16-125l-170 0z m249 125l124 0c-3-44-13-87-30-125l-110 0c9 39 14 81 16 125z m0 62c-2 44-7 85-16 125l110 0c17-39 27-81 30-125l-124 0z m-456 335c-30-41-55-90-73-147l-94 0c41 63 99 114 167 147z m-167-585l94 0c18-57 43-107 73-147-68 33-126 84-167 147z m518-147c30 40 55 90 73 147l93 0c-40-63-98-114-166-147z" horiz-adv-x="1000" />

<glyph glyph-name="arrow_triangle-right" unicode="&#xe822;" d="M434 109l239 219c14 12 14 32 0 44 0 0-1 0-1 1l-238 219c-13 12-35 12-48 0 0-1 0-1-1-1-6-6-10-13-10-22l0-438c0-9 4-17 11-22l0 0c13-13 35-13 48 0z" horiz-adv-x="1000" />

<glyph glyph-name="icon_search22" unicode="&#xe824;" d="M589 850c-222 0-403-180-403-403 0-96 34-184 90-253l-267-267c-17-16-17-44 0-60 17-17 44-17 61 0l266 266c69-56 157-89 253-89 223 0 403 180 403 403s-180 403-403 403z m0-744c-188 0-341 153-341 341s153 341 341 341 341-153 341-341-153-341-341-341z" horiz-adv-x="1000" />
</font>
</defs>
</svg>
